<svg xmlns="http://www.w3.org/2000/svg"><defs><font id="fl-icons" horiz-adv-x="1024"><font-face ascent="960" descent="-64" units-per-em="1024"/><glyph horiz-adv-x="512"/><glyph d="M512 0q-14.857 0-25.143 10.286l-356.571 344q-5.714 4.571-15.714 14.857t-31.714 37.429-38.857 55.714-30.571 69.143T.001 610.286Q.001 736 72.572 806.857t200.571 70.857q35.429 0 72.286-12.286T414 832.285t54.571-39.143T512 754.285q20.571 20.571 43.429 38.857T610 832.285t68.571 33.143 72.286 12.286q128 0 200.571-70.857t72.571-196.571q0-126.286-130.857-257.143l-356-342.857Q526.856 0 511.999 0z" glyph-name="heart" unicode=""/><glyph d="M1024 765.582c-37.675-16.709-78.165-28.002-120.661-33.081 43.371 26 76.686 67.17 92.373 116.231-40.597-24.078-85.557-41.561-133.41-50.981-38.32 40.83-92.921 66.341-153.346 66.341-116.023 0-210.087-94.057-210.087-210.078 0-16.466 1.858-32.501 5.44-47.879-174.601 8.763-329.401 92.4-433.017 219.506-18.085-31.029-28.446-67.115-28.446-105.618 0-72.889 37.088-137.193 93.461-174.866-34.439 1.093-66.832 10.542-95.154 26.279-.021-.875-.021-1.755-.021-2.642 0-101.787 72.418-186.697 168.521-206-17.625-4.8-36.187-7.371-55.349-7.371-13.538 0-26.697 1.321-39.527 3.771 26.736-83.461 104.32-144.206 196.251-145.895-71.899-56.35-162.487-89.934-260.917-89.934-16.958 0-33.68.994-50.117 2.939 92.971-59.609 203.401-94.393 322.041-94.393 386.423 0 597.737 320.123 597.737 597.744 0 9.109-.206 18.167-.61 27.179 41.056 29.621 76.672 66.619 104.837 108.747z" glyph-name="twitter" unicode=""/><glyph d="M575.87-64H384v512H256v176.45l128 .057-.208 103.952C383.792 872.411 422.825 960 592.391 960h141.175V783.515h-88.231c-66.032 0-69.207-24.656-69.207-70.683l-.263-88.325h158.69l-18.704-176.45L576 448l-.13-512z" glyph-name="facebook" unicode=""/><glyph d="M928 832H96c-52.8 0-96-43.2-96-96V96C0 43.2 43.2 0 96 0h832c52.8 0 96 43.2 96 96v640c0 52.8-43.2 96-96 96zM398.741 409.627 128 198.736v501.641l270.741-290.75zM176.379 704H847.62L511.999 452 176.378 704zm232.91-305.698L512 288l102.711 110.302L825.264 128H198.736l210.553 270.302zm215.97 11.325L896 700.377V198.736L625.259 409.627z" glyph-name="envelop" unicode=""/><glyph d="M927.813 960H639.251c-52.905 0-126.795-30.606-164.203-68.014L28.056 444.996c-37.408-37.408-37.408-98.624 0-136.032l344.91-344.905c37.408-37.41 98.622-37.41 136.03 0l446.99 446.987c37.41 37.41 68.016 111.301 68.016 164.203v288.562c0 52.903-43.287 96.187-96.187 96.187zM800 640c-53.019 0-96 42.981-96 96s42.981 96 96 96 96-42.981 96-96-42.981-96-96-96z" glyph-name="tag" unicode=""/><glyph d="m1024 562.951-353.781 51.408L512 934.94 353.783 614.357 0 562.951l256-249.538-60.432-352.352L512 127.418 828.432-38.941l-60.434 352.352L1024 562.952z" glyph-name="star" unicode=""/><glyph d="m1024 562.951-353.781 51.408L512 934.94 353.783 614.357 0 562.951l256-249.538-60.432-352.352L512 127.418 828.432-38.941l-60.434 352.352L1024 562.952zM512 206.503 288.537 89.022l42.677 248.83-180.786 176.222 249.84 36.304 111.733 226.398 111.737-226.395 249.835-36.304-180.789-176.222 42.679-248.83L512 206.504z" glyph-name="star-o" unicode=""/><glyph d="M136.295 209.07C61.1 209.07.002 147.735.002 72.995c0-75.154 61.099-135.801 136.293-135.801 75.465 0 136.494 60.649 136.494 135.801-.002 74.743-61.024 136.075-136.494 136.075zM.155 612.071V415.813c127.785 0 247.959-49.973 338.457-140.512C428.996 184.983 478.893 64.266 478.893-64h197.122c0 372.821-303.28 676.071-675.861 676.071zM.389 960V763.643c455.783 0 826.757-371.335 826.757-827.643h196.855c0 564.471-459.255 1024-1023.611 1024z" glyph-name="feed" unicode=""/><glyph d="M546.24 866.24c-124.992 124.992-327.488 124.992-452.512 0-124.992-124.928-124.992-327.616 0-452.48C93.76 413.76 320 192 320-64c0 256 226.24 477.76 226.24 477.76 125.024 124.864 125.024 327.552 0 452.48zM320 512c-70.752 0-128 57.248-128 128s57.248 128 128 128 128-57.248 128-128-57.248-128-128-128z" glyph-name="map-pin-fill" horiz-adv-x="640" unicode=""/><glyph d="M864 832 384 352 160 576 0 416 384 32l640 640z" glyph-name="checkmark" unicode=""/><glyph d="M992 576H640v352c0 17.673-14.327 32-32 32H416c-17.673 0-32-14.327-32-32V576H32c-17.673 0-32-14.327-32-32V352c0-17.673 14.327-32 32-32h352V-32c0-17.673 14.327-32 32-32h192c17.673 0 32 14.327 32 32v352h352c17.673 0 32 14.327 32 32v192c0 17.673-14.329 32-32 32z" glyph-name="plus" unicode=""/><glyph d="M512 867.8c136.8 0 153-.6 206.8-3 50-2.2 77-10.6 95-17.6 23.8-9.2 41-20.4 58.8-38.2 18-18 29-35 38.4-58.8 7-18 15.4-45.2 17.6-95 2.4-54 3-70.2 3-206.8s-.6-153-3-206.8c-2.2-50-10.6-77-17.6-95-9.2-23.8-20.4-41-38.2-58.8-18-18-35-29-58.8-38.4-18-7-45.2-15.4-95-17.6-54-2.4-70.2-3-206.8-3s-153 .6-206.8 3c-50 2.2-77 10.6-95 17.6-23.8 9.2-41 20.4-58.8 38.2-18 18-29 35-38.4 58.8-7 18-15.4 45.2-17.6 95-2.4 54-3 70.2-3 206.8s.6 153 3 206.8c2.2 50 10.6 77 17.6 95 9.2 23.8 20.4 41 38.2 58.8 18 18 35 29 58.8 38.4 18 7 45.2 15.4 95 17.6 53.8 2.4 70 3 206.8 3zm0 92.2c-139 0-156.4-.6-211-3-54.4-2.4-91.8-11.2-124.2-23.8C143 920 114.4 902.6 86 874c-28.6-28.4-46-57-59.2-90.6C14.2 750.8 5.4 713.6 3 659.2.6 604.4 0 587 0 448s.6-156.4 3-211c2.4-54.4 11.2-91.8 23.8-124.2C40 79 57.4 50.4 86 22c28.4-28.4 57-46 90.6-59 32.6-12.6 69.8-21.4 124.2-23.8 54.6-2.4 72-3 211-3s156.4.6 211 3C777.2-58.4 814.6-49.6 847-37c33.6 13 62.2 30.6 90.6 59s46 57 59 90.6c12.6 32.6 21.4 69.8 23.8 124.2 2.4 54.6 3 72 3 211s-.6 156.4-3 211c-2.4 54.4-11.2 91.8-23.8 124.2-12.6 34-30 62.6-58.6 91-28.4 28.4-57 46-90.6 59-32.6 12.6-69.8 21.4-124.2 23.8-54.8 2.6-72.2 3.2-211.2 3.2zm0-249c-145.2 0-263-117.8-263-263s117.8-263 263-263 263 117.8 263 263-117.8 263-263 263zm0-433.6c-94.2 0-170.6 76.4-170.6 170.6S417.8 618.6 512 618.6c94.2 0 170.6-76.4 170.6-170.6S606.2 277.4 512 277.4zm334.8 444c0-33.91-27.49-61.4-61.4-61.4S724 687.49 724 721.4s27.49 61.4 61.4 61.4 61.4-27.49 61.4-61.4z" glyph-name="instagram" unicode=""/><glyph d="M512 960C229.23 960 0 730.77 0 448S229.225-64 512-64c282.77 0 512 229.23 512 512S794.77 960 512 960zm49.643-684.119c-46.521 3.614-66.041 26.656-102.505 48.809C439.079 219.513 414.576 118.674 342 66.004c-22.405 158.967 32.894 278.363 58.569 405.113-43.783 73.705 5.271 222.034 97.621 185.474 113.625-44.949-98.4-274.007 43.931-302.615C690.74 324.109 751.41 611.834 659.264 705.4c-133.159 135.106-387.598 3.081-356.311-190.357 7.614-47.291 56.473-61.639 19.525-126.903-85.221 18.891-110.649 86.103-107.376 175.712 5.269 146.674 131.783 249.365 258.686 263.566 160.485 17.963 311.106-58.907 331.906-209.877 23.413-170.389-72.448-354.928-244.05-341.662z" glyph-name="pinterest" unicode=""/><glyph d="M975.31 382.062c2.811 20.8 4.43 41.945 4.43 63.472 0 258.311-210.542 467.744-470.206 467.744a467.41 467.41 0 0 1-75.733-6.16c-44.144 28.768-96.683 45.534-153.223 45.534C125.531 952.652 0 827.036 0 672.042c0-56.395 16.599-108.789 45.179-152.777-3.849-24.034-5.817-48.647-5.817-73.719 0-258.352 210.434-467.765 470.169-467.765 29.314 0 57.854 2.855 85.593 7.865 43.099-26.738 93.867-42.297 148.293-42.297C898.42-56.651 1024 68.997 1024 223.978c-.007 58.585-17.92 113.056-48.69 158.085zM553.481 100.807c-149.41-7.783-219.328 25.273-283.378 85.383-71.529 67.134-42.795 143.707 15.479 147.602 58.245 3.888 93.214-66.025 124.299-85.472 31.047-19.376 149.189-63.52 211.589 7.815 67.952 77.657-45.189 117.84-128.119 130.005-118.407 17.531-267.899 81.584-256.27 207.815 11.632 126.149 107.163 190.827 207.701 199.952 128.153 11.634 211.582-19.415 277.57-75.719 76.299-65.058 35.015-137.787-13.598-143.639-48.425-5.817-102.809 107.008-209.582 108.704-110.055 1.728-184.434-114.521-48.571-147.568 135.931-33.01 281.499-46.571 333.922-170.834C836.98 240.574 703.014 108.6 553.481 100.808z" glyph-name="skype" unicode=""/><glyph d="M1000.64 70.848 815.744 255.744c50.688 72.576 80.64 160.704 80.64 255.936 0 247.424-200.64 448-448 448s-448-200.576-448-448 200.576-448 448-448c95.232 0 183.424 29.952 256 80.64L889.28-40.576c30.72-30.72 80.64-30.72 111.36 0s30.72 80.576 0 111.424zM448.32 191.616c-176.704 0-320 143.232-320 320s143.296 320 320 320c176.768 0 320-143.232 320-320 .064-176.768-143.168-320-320-320z" glyph-name="search" unicode=""/><glyph d="M765.666 733.655c-6.882-9.806-64.487-87.232-200.555-138.229-62.704 115.205-132.208 209.849-142.784 224.011a382.227 382.227 0 0 0 89.675 10.64c97.23 0 186.087-36.469 253.664-96.423zm-226.914-289.58C341.399 380.281 236.379 206.397 227.71 191.554c-61.115 67.842-98.373 157.575-98.373 255.858 0 3.915.078 7.81.194 11.696 16.745-.343 202.181-2.734 393.278 54.457 10.953-21.44 21.417-43.202 31.024-64.939a415.365 415.365 0 0 1-15.081-4.551zM512 960C229.23 960 0 730.77 0 448S229.23-64 512-64s512 229.23 512 512-229.23 512-512 512zm.002-960C264.971 0 64 200.969 64 448c0 247.029 200.971 448 448.002 448S960 695.029 960 448C960 200.969 759.033 0 512.002 0zm107.916 483.097c-7.945 18.661-16.482 37.2-25.387 55.429 141.483 57.762 205.609 139.963 213.675 150.878 53.291-65.115 85.566-148.053 86.411-238.373-12.617 2.67-139.129 28.329-266.457 12.318a1527.477 1527.477 0 0 1-8.242 19.749zm-128.729 89.314c-178.997-47.531-336.651-46.848-353.767-46.622 24.814 118.743 104.837 217.433 211.893 267.927 10.087-13.835 78.471-108.594 141.874-221.305zm86.132-187.91c.839.293 1.68.562 2.521.85 53.723-139.605 75.943-256.61 81.637-290.185-45.947-19.568-96.466-30.409-149.477-30.409-88.464 0-170.002 30.183-234.882 80.779 6.887 14.078 84.363 163.753 300.201 238.965zm74.144 18.534c119.915 19.193 225.264-12.231 238.359-16.359-17.061-106.475-78.171-198.427-164.021-256.473-3.922 23.278-24.288 135.294-74.338 272.832z" glyph-name="dribbble" unicode=""/><glyph d="M862.805 960c59.989 0 108.373-48.512 111.232-105.6V-64L859.818 32.981l-62.72 57.088-68.437 59.648 28.587-94.08H158.293c-59.819 0-108.373 45.44-108.373 105.643v692.907c0 57.088 48.64 105.685 108.587 105.685h704zM601.771 717.525h-1.28l-8.619-8.533c88.448-25.6 131.243-65.579 131.243-65.579-57.003 28.501-108.373 42.752-159.744 48.512-37.12 5.76-74.24 2.731-105.6 0h-8.533c-20.053 0-62.72-8.533-119.893-31.36-19.925-8.661-31.36-14.336-31.36-14.336s42.752 42.752 136.96 65.579l-5.76 5.76s-71.339 2.731-148.352-54.187c0 0-77.013-134.144-77.013-299.52 0 0 42.667-74.24 159.701-77.056 0 0 17.067 22.741 34.347 42.752-65.707 19.968-91.307 59.904-91.307 59.904s5.717-2.816 14.293-8.533h2.56c1.28 0 1.877-.64 2.56-1.28v-.256c.683-.683 1.28-1.28 2.56-1.28 14.08-5.803 28.16-11.52 39.68-17.067 19.883-8.619 45.44-17.195 76.8-22.869 39.68-5.76 85.163-8.533 136.96 0 25.6 5.76 51.2 11.392 76.8 22.827 16.64 8.533 37.12 17.067 59.605 31.445 0 0-25.6-39.936-94.08-59.904 14.08-19.883 33.92-42.667 33.92-42.667 117.077 2.56 162.56 76.8 165.12 73.643 0 165.12-77.44 299.52-77.44 299.52-69.76 51.797-135.04 53.76-146.56 53.76zm7.168-188.288c29.995 0 54.187-25.6 54.187-56.96 0-31.573-24.32-57.173-54.187-57.173s-54.187 25.6-54.187 56.917c.085 31.573 24.448 57.088 54.187 57.216zm-193.835 0c29.867 0 54.016-25.6 54.016-56.96 0-31.573-24.32-57.173-54.187-57.173s-54.187 25.6-54.187 56.917c0 31.573 24.32 57.088 54.357 57.216z" glyph-name="discord" unicode=""/><glyph d="M1024 960V544L864 704 672 512l-96 96 192 192-160 160zM448 288 256 96 416-64H0v416l160-160 192 192z" glyph-name="expand" unicode=""/><glyph d="M852 960H172C77.401 960 0 882.599 0 788V108C0 13.401 77.401-64 172-64h680c94.599 0 172 77.401 172 172v680c0 94.599-77.401 172-172 172zM384 128H256v448h128V128zm-64 512c-35.346 0-64 28.654-64 64s28.654 64 64 64 64-28.654 64-64-28.654-64-64-64zm512-512H704v256c0 35.346-28.654 64-64 64s-64-28.654-64-64V128H448v448h128v-79.472C602.398 532.791 642.752 576 688 576c79.529 0 144-71.634 144-160V128z" glyph-name="linkedin" unicode=""/><glyph d="M948.992 884.992c-99.872 100-262.112 100-361.984 0L.992 299.008 0-64h361.984l587.008 587.008c100 100 100 261.984 0 361.984zM307.616 64H126.624v182.016c49.984 49.984 131.008 49.984 180.992 0s50.016-132.032 0-182.016zm548.512 549.504L675.136 794.496c49.984 49.984 131.008 49.984 180.992 0s49.984-131.008 0-180.992z" glyph-name="pen-alt-fill" unicode=""/><glyph d="M832 832H192C86.4 832 0 745.6 0 640V256C0 150.4 86.4 64 192 64h640c105.6 0 192 86.4 192 192v384c0 105.6-86.4 192-192 192zM384 192v512l320-256-320-256z" glyph-name="youtube" unicode=""/><glyph d="M800 544c-70.581 0-128-57.419-128-128s57.419-128 128-128 128 57.419 128 128-57.419 128-128 128zm0 96c123.71 0 224-100.288 224-224 0-123.71-100.29-224-224-224S576 292.29 576 416c0 123.712 100.29 224 224 224zM0 416c0-123.712 100.288-224 224-224s224 100.288 224 224-100.288 224-224 224S0 539.712 0 416z" glyph-name="flickr" unicode=""/><glyph d="M658.745 210.745 448 421.49V704h128V474.51l173.255-173.255zM512 960C229.23 960 0 730.77 0 448S229.23-64 512-64s512 229.23 512 512-229.23 512-512 512zm0-896c-212.078 0-384 171.922-384 384s171.922 384 384 384 384-171.922 384-384S724.078 64 512 64z" glyph-name="clock" unicode=""/><glyph d="M736 320c-64-64-64-128-128-128s-128 64-192 128-128 128-128 192 64 64 128 128-128 256-192 256S32 704 32 704c0-128 131.5-387.5 256-512S672-64 800-64c0 0 192 128 192 192S800 384 736 320z" glyph-name="phone" unicode=""/><glyph d="m794.857 296-.571.571q-8.571 10.286-19.714 21.429t-35.714 32.857-53.429 35.429T630.858 400q-27.429 0-47.429-12.286t-29.143-30.857-13.143-33.714-4-27.143q0-12 4-27.429t13.143-33.714 29.143-30.571T630.858 192q25.714 0 54.571 13.714t53.714 35.714 35.429 32.571 19.714 21.429zm406.857 0q0 12-4 27.143t-13.143 33.714-29.143 30.857T1107.999 400q-25.714 0-54.571-13.714t-53.714-35.714-35.429-32.571-19.714-21.429l-.571-.571.571-.571q8.571-10.286 19.714-21.429t35.714-32.857 53.429-35.429 54.571-13.714q27.429 0 47.429 12.286t29.143 30.571 13.143 33.714 4 27.429zm114.857 1.714q0-39.429-13.714-78.571t-38.857-72-66.286-53.429-90.857-20.571q-38.857 0-76.571 13.714t-64.857 33.429T917.143 160t-34 33.714-14.571 13.714-12.857-13.714-31.143-33.429-46.571-39.714-65.714-33.714-82-13.714q-37.143 0-70.571 12.857t-55.143 30.857-38 38-23.429 34-7.143 18.571q0-4.571-4.857-15.143t-14.286-26-26.857-31.429-39.429-30-55.143-22.857T224 73.142q-40.571 0-74.286 8.857T93.428 104.57t-40.286 32.286-27.429 36.286-15.714 36.286-8 30.857-2 20.857h124q0-31.429 28-61.429t72-30q45.143 0 76.857 38.286t31.714 84.571q0 45.714-29.714 78t-78.857 32.286q-2.857 0-7.429-.286t-17.714-2.857-24.571-6.857-24-14-19.429-22.857H19.427l58.286 333.143h344v-99.429H167.427q-15.429-90.857-23.429-141.714 2.286 0 9.429 7.429t18 16.286T208.57 488t61.714 7.429 65.143-11.714 47.143-28.286T411.999 422t17.714-28.571 6.286-11.714 7.429 14.286 20.857 34.571 34.571 40.857 55.429 34.857 76 14.286 80.286-14.286 66-34.571 47.714-40.857 32.286-34.857 12-14.286q1.143 0 12.571 14.286t32 34.571 47.714 40.857 66 34.857 80 14.286q52.571 0 94-20t66-53.143T1303.999 376t12.571-78.286z" glyph-name="px" horiz-adv-x="1317" unicode=""/><glyph d="M1095.429 653.714q13.143-36.571-85.714-168-13.714-18.286-37.143-48.571-44.571-57.143-51.429-74.857-9.714-23.429 8-46.286 9.714-12 46.286-46.857H976l2.286-2.286q80.571-74.857 109.143-126.286 1.714-2.857 3.714-7.143t4-15.143-.286-19.429-14.286-15.714-33.714-7.143l-146.286-2.286q-13.714-2.857-32 2.857t-29.714 12.571l-11.429 6.857q-17.143 12-40 36.571t-39.143 44.286-34.857 33.143-32.286 8.857q-1.714-.571-4.571-2t-9.714-8.286-12.286-16.857-9.714-29.714-3.714-44.286q0-8.571-2-15.714t-4.286-10.571l-2.286-2.857q-10.286-10.857-30.286-12.571h-65.714Q496 73.713 453.142 85.428t-75.143 30.286-58.857 37.714-40.286 32.857l-14.286 13.714q-5.714 5.714-15.714 17.143t-40.857 52-60.571 86.286-70 120.571T2.857 631.428q-3.429 9.143-3.429 15.429T1.142 656l2.286 3.429q8.571 10.857 32.571 10.857l156.571 1.143q6.857-1.143 13.143-3.714t9.143-4.857l2.857-1.714q9.143-6.286 13.714-18.286 11.429-28.571 26.286-59.143t23.429-46.571l9.143-16.571q16.571-34.286 32-59.429t27.714-39.143 23.714-22 19.429-8 15.429 2.857q1.143.571 2.857 2.857t6.857 12.571 7.714 26.857 5.429 46.286 0 71.429q-1.143 22.857-5.143 41.714t-8 26.286l-3.429 6.857q-14.286 19.429-48.571 24.571-7.429 1.143 2.857 13.714 9.714 10.857 21.714 17.143Q421.142 700 527.427 698.857q46.857-.571 77.143-7.429 11.429-2.857 19.143-7.714T635.427 670t6-18.286 2-26-.571-31.429-1.429-40.286-.857-47.143q0-6.286-.571-24t-.286-27.429 2-23.143 6.571-22.286 12.857-14q4.571-1.143 9.714-2.286t14.857 6.286 21.714 19.714 29.714 38.286 38.857 61.429q34.286 59.429 61.143 128.571 2.286 5.714 5.714 10t6.286 6l2.286 1.714 2.857 1.429 7.429 1.714 11.429.286 164.571 1.143q22.286 2.857 36.571-1.429t17.714-9.429z" glyph-name="vk" horiz-adv-x="1097" unicode=""/><glyph d="m576.032 512-.002-234.184c0-59.418-.77-93.656 5.53-110.5 6.25-16.754 21.918-34.146 38.99-44.202 22.684-13.588 48.542-20.376 77.708-20.376 51.854 0 82.478 6.848 133.742 40.54V-10.666c-43.7-20.552-81.866-32.594-117.324-40.922-35.5-8.242-73.86-12.406-115.064-12.406-46.828 0-74.456 5.886-110.41 17.656-35.958 11.868-66.66 28.806-92.02 50.54-25.45 21.922-43.022 45.208-52.848 69.832-9.826 24.636-14.716 60.414-14.716 107.244v359.1H192.192v145.006c40.208 13.042 85.164 31.788 113.78 56.152 28.754 24.45 51.766 53.706 69.106 87.944 17.392 34.146 29.348 77.712 35.872 130.516h165.084L576.032 704H832V512H576.032z" glyph-name="tumblr" unicode=""/><glyph d="M771.516 640c18.126 12.88 35.512 27.216 51.444 43.148 33.402 33.402 55.746 74.5 62.912 115.722 7.858 45.186-3.672 87.14-31.63 115.1-22.3 22.298-52.51 34.086-87.364 34.086-49.632 0-101.922-23.824-143.46-65.362-66.476-66.476-105.226-158.238-126.076-223.722-15.44 65.802-46.206 154.644-106.018 214.458C359.23 905.522 318.21 922 279.478 922c-31.654 0-61.78-11.004-84.26-33.486-49.986-49.988-43.232-137.786 15.086-196.104 20.792-20.792 45.098-38.062 70.72-52.412H64v-256h64v-448h768V384h64v256H771.516zm-97.19 191.782c27.724 27.724 62.322 44.274 92.55 44.274 10.7 0 25.708-2.254 36.45-12.998 26.03-26.028 11.412-86.308-31.28-128.998-43.946-43.946-103.06-74.168-154.432-94.06h-50.672C585.51 697.548 619 776.456 674.326 831.782zM233.934 799.11c-.702 9.12-.05 26.248 12.196 38.494C256.374 847.848 269.918 850 279.478 850c21.258 0 43.468-10.016 60.932-27.48 33.872-33.872 61.766-87.772 80.668-155.876.51-1.84 1.008-3.67 1.496-5.486-1.816.486-3.646.984-5.486 1.496-68.104 18.904-122.002 46.798-155.874 80.67-15.828 15.826-25.77 36.16-27.28 55.786zM448 0H192v416h256V0zm0 448H128v128h320V448zM832 0H576v416h256V0zm64 448H576v128h320V448z" glyph-name="gift" unicode=""/><glyph d="m288 832 640-384L288 64z" glyph-name="play" unicode=""/><glyph d="M128 725.334h768q17.667 0 30.167-12.5t12.5-30.167-12.5-30.167T896 640H128q-17.667 0-30.167 12.5t-12.5 30.167 12.5 30.167 30.167 12.5zm0-512h768q17.667 0 30.167-12.5t12.5-30.167-12.5-30.167T896 128H128q-17.667 0-30.167 12.5t-12.5 30.167 12.5 30.167 30.167 12.5zm0 256h768q17.667 0 30.167-12.5t12.5-30.167-12.5-30.167T896 384H128q-17.667 0-30.167 12.5t-12.5 30.167 12.5 30.167 30.167 12.5z" glyph-name="menu" unicode=""/><glyph d="M995.52 53.248c-6.432 4.256-123.136 80.8-296.736 118.368 63.68 80.672 104.576 189.184 121.952 261.408 24.128 100.096 14.752 295.936-81.376 417.984C683.168 922.336 604.544 960 512 960s-171.168-37.696-227.328-108.992C188.544 728.992 179.2 533.152 203.296 433.056c17.376-72.224 58.24-180.736 121.952-261.408C151.648 134.08 34.944 57.536 28.544 53.28 5.088 37.664-5.408 8.48 2.784-18.464 10.912-45.504 35.84-64 64-64h896c28.192 0 53.056 18.496 61.248 45.504 8.224 26.944-2.272 56.128-25.728 71.744zM648.544 211.264l-10.432-13.248c-76.32-87.68-175.84-87.68-252.128 0l-10.464 13.248c-89.12 112.928-133.344 262.304-114.304 404.8C278.656 752.992 357.12 896 512 896s233.376-143.04 250.816-279.968c18.976-142.56-25.088-291.776-114.272-404.768zM64 0c4.416 2.944 112.832 74.048 274.752 109.056l79.488 17.184C446.624 107.616 477.76 96 512 96c34.272 0 65.376 11.616 93.76 30.24l79.488-17.184C845.888 74.304 953.92 4 960 0H64z" glyph-name="user-o" unicode=""/><glyph d="M576 253.388v52.78C646.498 345.896 704 444.94 704 544c0 159.058 0 288-192 288S320 703.058 320 544c0-99.06 57.502-198.104 128-237.832v-52.78C230.898 235.64 64 128.968 64 0h896c0 128.968-166.898 235.64-384 253.388z" glyph-name="user" unicode=""/><glyph d="M484.571 877.714q76.571.571 137.429-39.143t93.429-110q15.429-33.143 15.429-102.286 0-26.857-5.143-109.143 8-4 16-4 10.286 0 29.143 7.714t29.143 7.714q16.571 0 32-10.286t15.429-26.286q0-18.286-18-30.857t-39.429-18-39.429-16.571-18-27.143q0-8.571 6.857-24.571 21.143-46.857 58.571-85.714t82.571-57.714q16-6.857 45.714-13.143 16-3.429 16-20 0-40-125.143-58.857-4-6.286-6.286-22.286t-8-26.571T783.999 80q-11.429 0-35.429 3.714t-36.571 3.714q-21.143 0-35.429-2.857-18.286-2.857-36-12.857T607.427 50t-33.143-23.143-43.429-19.143T474.284 0q-29.714 0-55.143 7.714t-42.857 19.143T343.427 50t-33.143 21.714-35.429 12.857q-14.857 2.857-36 2.857-13.714 0-37.429-4.286t-33.429-4.286q-14.286 0-20 10.571t-8 27.143-6.286 22.857Q8.568 158.284 8.568 198.284q0 16.571 16 20 29.714 6.286 45.714 13.143 44.571 18.286 82.571 57.714t58.571 85.714q6.857 16 6.857 24.571 0 16-18 27.143t-39.714 16.857-39.714 18-18 30q0 15.429 14.857 26t31.429 10.571q8.571 0 27.429-7.429t30.286-7.429q10.286 0 18.286 4-5.143 81.143-5.143 108.571 0 69.714 15.429 102.857 36.571 78.286 98.286 113.143t150.857 36z" glyph-name="snapchat" horiz-adv-x="951" unicode=""/><glyph d="M512 768c-54.932 0-107.988-8.662-157.694-25.742-46.712-16.054-88.306-38.744-123.628-67.444C164.464 621.016 128 551.83 128 480c0-40.298 11.188-79.378 33.252-116.152 22.752-37.92 56.982-72.586 98.988-100.252a127.993 127.993 0 0 0 56.176-87.894 323.6 323.6 0 0 0 3.37-36.124c7.47 6.194 14.75 12.846 21.88 19.976a128.015 128.015 0 0 0 106.658 36.466A506.846 506.846 0 0 1 512 192c54.934 0 107.988 8.66 157.694 25.742 46.712 16.054 88.306 38.744 123.628 67.444C859.536 338.982 896 408.17 896 480s-36.464 141.016-102.678 194.814c-35.322 28.698-76.916 51.39-123.628 67.444C619.988 759.338 566.934 768 512 768zm0 128c282.77 0 512-186.25 512-416 0-229.752-229.23-416-512-416-27.156 0-53.81 1.734-79.824 5.044C322.198-40.934 190.926-60.656 64-63.552v26.916C132.536-3.058 192 58.104 192 128c0 9.754-.758 19.33-2.164 28.696C74.04 232.96 0 349.45 0 480c0 229.75 229.23 416 512 416z" glyph-name="chat" unicode=""/><glyph d="M480 258.731C461.357 265.32 448 283.1 448 304c0 26.51 21.49 48 48 48s48-21.49 48-48c0-20.9-13.357-38.679-32-45.269v-83.019c0-8.42-7.163-15.712-16-15.712-8.578 0-16 7.035-16 15.712v83.019zM256 512c-53.045-.15-96-42.866-96-96.303V96.304C160 43.117 203.059.001 256.281.001h479.438C788.894.001 832 42.773 832 96.304v319.393c0 53.093-42.907 96.151-96 96.303v112.025c0 132.535-107.721 239.976-240 239.976-132.548 0-240-107.415-240-239.976V512zm96 0v111.973C352 703.704 416.471 768 496 768c79.367 0 144-64.483 144-144.027V512H352z" glyph-name="lock" unicode=""/><glyph d="M821.143 429.143q0-118.857-49.714-211.714T629.715 72.286 418.858 20q-85.143 0-162.857 33.143t-133.714 89.143T33.144 276 .001 438.857t33.143 162.857 89.143 133.714 133.714 89.143 162.857 33.143q163.429 0 280.571-109.714L585.715 638.857q-66.857 64.571-166.857 64.571-70.286 0-130-35.429t-94.571-96.286-34.857-132.857 34.857-132.857 94.571-96.286 130-35.429q47.429 0 87.143 13.143t65.429 32.857 44.857 44.857 28 47.429 12.286 42.286H418.859v144h395.429q6.857-36 6.857-69.714zm495.428 69.714v-120h-119.429V259.428h-120v119.429H957.713v120h119.429v119.429h120V498.857h119.429z" glyph-name="google-plus" horiz-adv-x="1317" unicode=""/><glyph d="M950.857 610.286q0 46.286-12.286 81.714t-31.429 56.286-46.571 34T806.857 800t-56 4.571-64-14.571-63.143-36.571-49.429-41.143-34.286-35.143q-10.286-12.571-28-12.571t-28 12.571q-13.714 16-34.286 35.143t-49.429 41.143T337.141 790t-64 14.571-56-4.571-53.714-17.714-46.571-34T85.427 692t-12.286-81.714q0-96 106.857-202.857l332-320 331.429 319.429q107.429 107.429 107.429 203.429zm73.143 0Q1024 484 893.143 353.143l-356-342.857Q526.857 0 512 0t-25.143 10.286l-356.571 344q-5.714 4.571-15.714 14.857t-31.714 37.429-38.857 55.714-30.571 69.143T.001 610.286Q.001 736 72.572 806.857t200.571 70.857q35.429 0 72.286-12.286T414 832.285t54.571-39.143T512 754.285q20.571 20.571 43.429 38.857T610 832.285t68.571 33.143 72.286 12.286q128 0 200.571-70.857t72.571-196.571z" glyph-name="heart-o" unicode=""/><glyph d="M512.128 967.111h-.256C229.569 967.111 0 737.479 0 455.111c0-112 36.096-215.808 97.472-300.096L33.664-35.193l196.8 62.912C311.424-25.911 408-56.889 512.128-56.889c282.303 0 511.872 229.696 511.872 512s-229.568 512-511.872 512zm297.92-723.006c-12.352-34.88-61.376-63.808-100.48-72.256-26.752-5.696-61.695-10.24-179.326 38.528-150.464 62.336-247.36 215.232-254.912 225.152-7.232 9.92-60.8 80.96-60.8 154.431s37.312 109.248 52.352 124.608c12.352 12.608 32.768 18.368 52.352 18.368 6.336 0 12.032-.32 17.152-.576 15.04-.64 22.592-1.536 32.512-25.28 12.352-29.76 42.432-103.232 46.016-110.784 3.648-7.552 7.296-17.792 2.176-27.712-4.8-10.24-9.024-14.784-16.576-23.488s-14.72-15.36-22.272-24.704c-6.912-8.128-14.72-16.832-6.016-31.872 8.704-14.72 38.784-63.808 83.072-103.232 57.152-50.88 103.488-67.136 120.064-74.048 12.352-5.12 27.072-3.904 36.096 5.696 11.456 12.352 25.6 32.832 40 52.992 10.24 14.464 23.168 16.256 36.736 11.136 13.824-4.8 86.976-40.958 102.014-48.446 15.04-7.552 24.96-11.136 28.608-17.472 3.584-6.336 3.584-36.096-8.768-71.04z" glyph-name="whatsapp" unicode=""/><glyph d="M384 32c0-53.019-42.981-96-96-96s-96 42.981-96 96 42.981 96 96 96 96-42.981 96-96zm640 0c0-53.019-42.981-96-96-96s-96 42.981-96 96 42.981 96 96 96 96-42.981 96-96zm0 416v384H256c0 35.346-28.654 64-64 64H0v-64h128l48.074-412.054C146.78 396.488 128 360.446 128 320c0-70.696 57.308-128 128-128h768v64H256c-35.346 0-64 28.654-64 64 0 .218.014.436.016.656L1024 448z" glyph-name="shopping-cart" unicode=""/><glyph d="M1097.143 512q30.286 0 51.714-21.429t21.429-51.714-21.429-51.714-51.714-21.429h-8.571l-65.714-378.286q-4.571-26.286-25.143-43.429t-46.857-17.143H219.429q-26.286 0-46.857 17.143t-25.143 43.429L81.715 365.714h-8.571q-30.286 0-51.714 21.429T.001 438.857t21.429 51.714T73.144 512h1024zm-820-457.143Q292 56 302 67.714t8.857 26.571l-18.286 237.714q-1.143 14.857-12.857 24.857t-26.571 8.857-24.857-12.857-8.857-26.571l18.286-237.714q1.143-14.286 11.714-24t24.857-9.714h2.857zM512 91.428v237.714q0 14.857-10.857 25.714t-25.714 10.857-25.714-10.857-10.857-25.714V91.428q0-14.857 10.857-25.714t25.714-10.857 25.714 10.857T512 91.428zm219.429 0v237.714q0 14.857-10.857 25.714t-25.714 10.857-25.714-10.857-10.857-25.714V91.428q0-14.857 10.857-25.714t25.714-10.857 25.714 10.857 10.857 25.714zm201.142-2.857 18.286 237.714Q952 341.142 942 352.856t-24.857 12.857-26.571-8.857-12.857-24.857L859.429 94.285q-1.143-14.857 8.857-26.571t24.857-12.857H896q14.286 0 24.857 9.714t11.714 24zM272 784l-53.143-235.429h-75.429l57.714 252q10.857 50.286 50.857 82t91.429 31.714h95.429q0 14.857 10.857 25.714t25.714 10.857h219.429q14.857 0 25.714-10.857t10.857-25.714h95.429q51.429 0 91.429-31.714t50.857-82l57.714-252h-75.429L898.285 784q-6.286 25.143-26 41.143t-45.429 16h-95.429q0-14.857-10.857-25.714t-25.714-10.857H475.427q-14.857 0-25.714 10.857t-10.857 25.714h-95.429q-25.714 0-45.429-16t-26-41.143z" glyph-name="shopping-basket" horiz-adv-x="1170" unicode=""/><glyph d="m1004 146.286 20-178.857q1.714-16-9.143-28.571-10.857-12-27.429-12H36.571q-16.571 0-27.429 12Q-1.715-48.571-.001-32.571l20 178.857h984zm-53.143 479.428L1000 182.857H24l49.143 442.857q1.714 13.714 12 23.143t24.571 9.429H256v-73.143q0-30.286 21.429-51.714T329.143 512t51.714 21.429 21.429 51.714v73.143h219.429v-73.143q0-30.286 21.429-51.714T694.858 512t51.714 21.429 21.429 51.714v73.143h146.286q14.286 0 24.571-9.429t12-23.143zM731.429 731.428V585.142q0-14.857-10.857-25.714t-25.714-10.857-25.714 10.857-10.857 25.714v146.286q0 60.571-42.857 103.429t-103.429 42.857-103.429-42.857-42.857-103.429V585.142q0-14.857-10.857-25.714t-25.714-10.857-25.714 10.857-10.857 25.714v146.286q0 90.857 64.286 155.143t155.143 64.286 155.143-64.286 64.286-155.143z" glyph-name="shopping-bag" unicode=""/><glyph d="M534.613 959.147c55.893.853 111.36.427 166.827.853 3.413-65.28 26.88-131.84 74.667-177.92 47.787-47.36 115.2-69.12 180.907-76.373V533.76c-61.44 2.133-123.307 14.933-179.2 41.387-24.32 11.093-46.933 25.173-69.12 39.68-.427-124.587.427-249.173-.853-373.333-3.413-59.733-23.04-119.04-57.6-168.107-55.893-81.92-152.747-135.253-252.16-136.96-61.013-3.413-122.027 13.227-174.08 43.947C137.814 31.147 77.228 124.161 68.268 224.001c-.853 21.333-1.28 42.667-.427 63.573 7.68 81.067 47.787 158.72 110.08 211.627 70.827 61.44 169.813 90.88 262.4 73.387.853-63.147-1.707-126.293-1.707-189.44-42.24 13.653-91.733 9.813-128.853-15.787-26.88-17.493-47.36-44.373-58.027-74.667-8.96-21.76-6.4-45.653-5.973-68.693 10.24-69.973 77.653-128.853 149.333-122.453 47.787.427 93.44 28.16 118.187 68.693 8.107 14.08 17.067 28.587 17.493 45.227 4.267 76.373 2.56 152.32 2.987 228.693.427 171.947-.427 343.467.853 514.987z" glyph-name="tiktok" unicode=""/><glyph d="M96 960 0 800V64h256V-64h128L512 64h160l288 288v608H96zm736-544L672 256H512L384 128v128H192v576h640V416zM608 704h96V448h-96v256zm-192 0h96V448h-96v256z" glyph-name="twitch" unicode=""/><glyph d="M778.4 864h141.2L611.2 511.6 974 32H690L467.4 322.8 213 32H71.6l329.8 377L53.6 864h291.2l201-265.8L778.4 864zm-49.6-747.6H807L302.2 784h-84l510.6-667.6z" glyph-name="x" unicode=""/><glyph d="M448 832v16c0 26.4-21.6 48-48 48H240c-26.4 0-48-21.6-48-48v-16H0V704h192v-16c0-26.4 21.6-48 48-48h160c26.4 0 48 21.6 48 48v16h576v128H448zM256 704v128h128V704H256zm576-176c0 26.4-21.6 48-48 48H624c-26.4 0-48-21.6-48-48v-16H0V384h576v-16c0-26.4 21.6-48 48-48h160c26.4 0 48 21.6 48 48v16h192v128H832v16zM640 384v128h128V384H640zM448 208c0 26.4-21.6 48-48 48H240c-26.4 0-48-21.6-48-48v-16H0V64h192V48c0-26.4 21.6-48 48-48h160c26.4 0 48 21.6 48 48v16h576v128H448v16zM256 64v128h128V64H256z" glyph-name="equalizer" unicode=""/><glyph d="M1014.662 137.34c-.004.004-.008.008-.012.01L704.006 448l310.644 310.65.012.01a31.763 31.763 0 0 1 7.312 11.416c4.246 11.376 1.824 24.682-7.324 33.83L867.904 950.652c-9.148 9.146-22.45 11.566-33.828 7.32a31.826 31.826 0 0 1-11.418-7.31c0-.004-.004-.006-.008-.01L512.002 640 201.354 950.65l-.01.01a31.794 31.794 0 0 1-11.414 7.31c-11.38 4.248-24.682 1.826-33.83-7.32L9.352 803.902C.204 794.754-2.216 781.45 2.03 770.074a31.816 31.816 0 0 1 7.312-11.416c.004-.002.006-.006.01-.01L320.002 448 9.352 137.348l-.008-.01a31.859 31.859 0 0 1-7.314-11.414c-4.248-11.376-1.826-24.682 7.322-33.83L156.1-54.652c9.15-9.148 22.452-11.568 33.83-7.322a31.834 31.834 0 0 1 11.416 7.312c.002.004.006.006.01.01l310.648 310.65 310.648-310.65.012-.008a31.822 31.822 0 0 1 11.414-7.314c11.378-4.246 24.684-1.826 33.828 7.322l146.746 146.748c9.148 9.148 11.57 22.454 7.324 33.83a31.805 31.805 0 0 1-7.314 11.414z" glyph-name="cross" unicode=""/><glyph d="M512 960C229.2 960 0 730.8 0 448S229.2-64 512-64s512 229.2 512 512-229.2 512-512 512zm251.6-351-84-395.8c-5.8-28.2-22.8-34.8-46.4-21.8l-128 94.6-61.4-59.8c-7.2-7-12.8-12.8-25.6-12.8-16.6 0-13.8 6.2-19.4 22l-43.6 143.2L228.6 418c-27.4 8.4-27.6 27.2 6.2 40.6L728 649c22.4 10.2 44.2-5.4 35.6-40z" glyph-name="telegram" unicode=""/><glyph d="m786.286 448 78.857-77.143q17.143-16 11.429-40-6.857-23.429-29.714-29.143l-107.429-27.429 30.286-106.286q6.857-23.429-10.857-40-16.571-17.714-40-10.857l-106.286 30.286-27.429-107.429Q579.429 17.142 556 10.285q-6.857-1.143-10.857-1.143-17.714 0-29.143 12.571l-77.143 78.857-77.143-78.857q-16-17.143-40-11.429-23.429 6.286-29.143 29.714l-27.429 107.429-106.286-30.286q-23.429-6.857-40 10.857-17.714 16.571-10.857 40l30.286 106.286-107.429 27.429q-22.857 5.714-29.714 29.143-5.714 24 11.429 40l78.857 77.143-78.857 77.143q-17.143 16-11.429 40 6.857 23.429 29.714 29.143l107.429 27.429L107.999 728q-6.857 23.429 10.857 40 16.571 17.714 40 10.857l106.286-30.286L292.571 856q5.714 23.429 29.143 29.143 23.429 6.857 40-10.857l77.143-79.429L516 874.286q16.571 17.143 40 10.857 23.429-5.714 29.143-29.143l27.429-107.429 106.286 30.286q23.429 6.857 40-10.857 17.714-16.571 10.857-40l-30.286-106.286 107.429-27.429q22.857-5.714 29.714-29.143 5.714-24-11.429-40z" glyph-name="certificate" horiz-adv-x="878" unicode=""/><glyph d="M332.571 685.652q0-7.429-5.714-13.143L102.286 447.938l224.571-224.571q5.714-5.714 5.714-13.143t-5.714-13.143l-28.571-28.571q-5.714-5.714-13.143-5.714T272 168.51L5.714 434.796Q0 440.51 0 447.939t5.714 13.143L272 727.368q5.714 5.714 13.143 5.714t13.143-5.714l28.571-28.571q5.714-5.714 5.714-13.143z" glyph-name="angle-left" horiz-adv-x="382" unicode=""/><glyph d="M398 447.978q0-7.429-5.714-13.143L126 168.549q-5.714-5.714-13.143-5.714t-13.143 5.714L71.143 197.12q-5.714 5.714-5.714 13.143t5.714 13.143l224.571 224.571L71.143 672.548q-5.714 5.714-5.714 13.143t5.714 13.143l28.571 28.571q5.714 5.714 13.143 5.714T126 727.405l266.286-266.286Q398 455.405 398 447.976z" glyph-name="angle-right" horiz-adv-x="398" unicode=""/><glyph d="M614.286 283.429q0-7.429-5.714-13.143l-28.571-28.571q-5.714-5.714-13.143-5.714t-13.143 5.714L329.144 466.286 104.573 241.715q-5.714-5.714-13.143-5.714t-13.143 5.714l-28.571 28.571q-5.714 5.714-5.714 13.143t5.714 13.143l266.286 266.286q5.714 5.714 13.143 5.714t13.143-5.714l266.286-266.286q5.714-5.714 5.714-13.143z" glyph-name="angle-up" horiz-adv-x="658" unicode=""/><glyph d="M614.286 539.429q0-7.429-5.714-13.143L342.286 260q-5.714-5.714-13.143-5.714T316 260L49.714 526.286Q44 532 44 539.429t5.714 13.143l28.571 28.571q5.714 5.714 13.143 5.714t13.143-5.714l224.571-224.571 224.571 224.571q5.714 5.714 13.143 5.714t13.143-5.714l28.571-28.571q5.714-5.714 5.714-13.143z" glyph-name="angle-down" horiz-adv-x="658" unicode=""/><glyph d="M512 768C288.682 768 95.118 637.958 0 448c95.118-189.958 288.682-320 512-320 223.312 0 416.876 130.042 512 320-95.116 189.958-288.688 320-512 320zm252.45-169.704C824.612 559.922 875.592 508.522 913.884 448c-38.292-60.522-89.274-111.922-149.436-150.296C688.854 249.486 601.558 224 512 224c-89.56 0-176.858 25.486-252.452 73.704C199.39 336.076 148.41 387.476 110.116 448c38.292 60.524 89.274 111.924 149.434 150.296 3.918 2.5 7.876 4.922 11.86 7.3C261.45 578.268 256 548.774 256 518c0-141.382 114.616-256 256-256 141.382 0 256 114.618 256 256 0 30.774-5.452 60.268-15.408 87.598a481.379 481.379 0 0 0 11.858-7.302zM512 544c0-53.02-42.98-96-96-96s-96 42.98-96 96 42.98 96 96 96 96-42.982 96-96z" glyph-name="eye" unicode=""/><glyph d="M945.942 945.942c-18.746 18.744-49.136 18.744-67.882 0L675.896 743.778C623.958 759.532 568.948 768 512 768 288.682 768 95.118 637.958 0 448c41.122-82.124 100.648-153.04 173.022-207.096L14.06 81.942c-18.746-18.746-18.746-49.136 0-67.882C23.432 4.686 35.716 0 48 0s24.568 4.686 33.942 14.058l864 864c18.744 18.746 18.744 49.138 0 67.884zM416 640c42.24 0 78.082-27.294 90.92-65.196L385.196 453.08C347.294 465.918 320 501.76 320 544c0 53.02 42.98 96 96 96zM110.116 448c38.292 60.524 89.274 111.924 149.434 150.296 3.918 2.5 7.876 4.922 11.862 7.3C261.45 578.268 256 548.774 256 518c0-54.89 17.286-105.738 46.7-147.418l-60.924-60.924C189.33 346.5 144.574 393.54 110.116 448zM768 518c0 27.166-4.256 53.334-12.102 77.898L434.09 274.09C458.658 266.248 484.832 262 512 262c141.382 0 256 114.618 256 256zm62.026 152.026-69.362-69.362c1.264-.786 2.53-1.568 3.786-2.368C824.612 559.922 875.592 508.522 913.884 448c-38.292-60.522-89.274-111.922-149.436-150.296C688.854 249.486 601.558 224 512 224a468.97 468.97 0 0 0-113.962 14.04l-76.894-76.894C380.862 139.684 445.094 128 512 128c223.31 0 416.876 130.042 512 320-45.022 89.916-112.118 166.396-193.974 222.026z" glyph-name="eye-blocked" unicode=""/></font>
</defs>
</svg>
